Nella - T1[MicroHD 1080p WEB-DL][Castellano][500MB]2017[17/40][MULTI]
Preguntas Frecuentes Buscar Lista De Miembros Grupos Edita Tu Perfil Mensajes Privados Conectarse Registrarse
Indice Del Foro Normas y Reglas Del Foro Chat Enlaces Radio Online Referidos Rangos Del Foro Juegos Gratis

   Búsqueda Avanzada
Publicar Nuevo Tema   Responder al Tema -> Series De Televisión Animadas  Series De Televisión Animadas

Ver tema anterior Foro De Series De Tv Tema RSS Para recibir las ultimas noticias en tu email Ver siguiente tema
Autor Mensaje
frunfrun
7 Estrellas




Registrado: 18 Nov 2017
Mensajes: 684

spain.png



Desconectado
MensajePublicado: Mar Nov 21, 2017 2:27 am  Nella - T1[MicroHD 1080p WEB-DL][Castellano][500MB]2017[17/40][MULTI] Responder citando Back to top



INFO DE LA SERIE:

TÍTULO ORIGINAL: Nella the Princess Knight
AÑO: 2017
DURACIÓN: 23 min.
PAÍS: Irlanda
DIRECTOR: Christine Ricci
GÉNERO: Animación. Familiar.

SINOPSIS:

Nella no es una princesa común, es una princesa guerrera, dotada del valor y el arrojo de un caballero. Junto a su elegante unicornio, Trinket, su leal compañero, Sir Garrett y su bicornio corcel, Clod, Nella lucha porque la justicia y la bondad prevalezcan.

CAPTURAS:

Spoiler:




MEDIA INFO:

Spoiler:

General
Unique ID : 248157943189330481188363610890679284031 (0xBAB17B3B3BE1D4622413A0B08176F13F)
Complete name : C:\DESCARGAS\SUBIR\Nella, la princesa valiente 1x01 m1080p.mkv
Format : Matroska
Format version : Version 2
File size : 511 MiB
Duration : 22mn 42s
Overall bit rate : 3 146 Kbps
Encoded date : UTC 2017-07-20T16:45:43Z
Writing application : HandBrake 0.10.5 2016021100
Writing library : Lavf55.12.0

Video
ID : 1
Format : AVC
Format/Info : Advanced Video Codec
Format profile : High@L4.1
Format settings, CABAC : Yes
Format settings, ReFrames : 4 frames
Codec ID : V_MPEG4/ISO/AVC
Duration : 22mn 42s
Bit rate : 3 000 Kbps
Width : 1 920 pixels
Height : 1 080 pixels
Display aspect ratio : 16:9
Frame rate mode : Constant
Frame rate : 23.976 fps
Color space : YUV
Chroma subsampling : 4:2:0
Bit depth : 8 bits
Scan type : Progressive
Bits/(Pixel*Frame) : 0.060
Stream size : 470 MiB (92%)
Writing library : x264 core 142 r2479 dd79a61
Encoding settings : cabac=1 / ref=1 / deblock=1:0:0 / analyse=0x3:0x113 / me=hex / subme=2 / psy=1 / psy_rd=1.00:0.00 / mixed_ref=0 / me_range=16 / chroma_me=1 / trellis=0 / 8x8dct=1 / cqm=0 / deadzone=21,11 / fast_pskip=1 / chroma_qp_offset=0 / threads=36 / lookahead_threads=8 / sliced_threads=0 / nr=0 / decimate=1 / interlaced=0 / bluray_compat=0 / constrained_intra=0 / bframes=3 / b_pyramid=2 / b_adapt=1 / b_bias=0 / direct=1 / weightb=1 / open_gop=0 / weightp=1 / keyint=240 / keyint_min=24 / scenecut=40 / intra_refresh=0 / rc_lookahead=10 / rc=abr / mbtree=1 / bitrate=3000 / ratetol=1.0 / qcomp=0.60 / qpmin=0 / qpmax=69 / qpstep=4 / vbv_maxrate=62500 / vbv_bufsize=78125 / nal_hrd=none / filler=0 / ip_ratio=1.40 / aq=1:1.00
Default : Yes
Forced : No
Color range : Limited
Color primaries : BT.709
Transfer characteristics : BT.709
Matrix coefficients : BT.709

Audio
ID : 2
Format : AC-3
Format/Info : Audio Coding 3
Mode extension : CM (complete main)
Format settings, Endianness : Big
Codec ID : A_AC3
Duration : 22mn 42s
Bit rate mode : Constant
Bit rate : 192 Kbps
Channel(s) : 2 channels
Channel positions : Front: L R
Sampling rate : 48.0 KHz
Compression mode : Lossy
Delay relative to video : 27ms
Stream size : 31.2 MiB (6%)
Title : Stereo
Language : English
Default : Yes
Forced : No





Ripeo y Sincro: frunfrun
Calidad: WEBDL m1080p
Codecs: AVC x264 | 1800kbps | High@L5.0 | 4 marcos / AC3 | 192kbps | 2canales
Contenedor: MKV
Idioma: español
Imagen: 1 920 x 1 080
Tamaño: 500Mb
Hostings: Uploaded,Usercloud o 1 fichier



1x01 Dragones y valerosos caballeros y el escondite en el castillo
1x02 Sir Clod y caballero en vela
1x03 La orquesta de la princesa Nella y el juego de Blaine
1x04 Niña nueva en el Reino y gran sorpresa de cumpleaños
1x05 Para éso están los mejores amigos y una sandía rebelde

Código:
http://ouo.io/YMS5Oj


1x06 La dragona abusona y la ciruela realiciosa
1x07 Contrincantes en el festival del estilo y el día del chapuzón de los amigos
1x08 El cromo de caballero de Sir Coach y un cuento de caballeros
1x09 Tres son multitud y más de lo que ven mis ojos
1x10 Flutter metepatas y una sorpresa de pleno

Código:
https://www.keeplinks.eu/p67/597e090f9e3e0


1x11 Ni vestido, ni corona, ni fiesta y Clod Monet
1x12 Un día en la playa realmente increíble y sacadme al dragón de encima
1x13 La feria de compartir y cascos con talento

Código:
http://ouo.io/03p2VK


1x14 De animalitos y dragones y carruajes, carros y gigantomóviles

Código:
http://ouo.io/CGvVF2


1x15 Nella y el mago malvado
1x16 El retrato perfecto de la familia de Nella y problema gigante
1x17 Duelo por la fiesta de pijamas y la gran estrella Garabato

Código:
http://ouo.io/7zFZLR


Ver perfil del usuario Enviar mensaje privado
frunfrun
7 Estrellas




Registrado: 18 Nov 2017
Mensajes: 684

spain.png



Desconectado
MensajePublicado: Mie Ene 10, 2018 6:45 am  Re: Nella - T1[MicroHD 1080p WEB-DL][Castellano][500MB]2017[17/40][MULTI] Responder citando Back to top

Añadidos

1x15 Nella y el mago malvado
1x16 El retrato perfecto de la familia de Nella y problema gigante
1x17 Duelo por la fiesta de pijamas y la gran estrella Garabato
Ver perfil del usuario Enviar mensaje privado
Mostrar mensajes anteriores:   

Publicar Nuevo Tema   Responder al Tema 

Ver siguiente tema
Ver tema anterior
No puede crear mensajes
No puede responder temas
No puede editar sus mensajes
No puede borrar sus mensajes
No puede votar en encuestas

Foro De Series De Tv Tema RSS Google Sitemap Google XML RSS A PDF    

Seguridad del Foro

69057 Ataques Bloqueados

Powered by phpBB © 2001, 2004 phpBB Group. © Foro De Series