Enredados serie 1T [m1080p WEB-DL][Castellano]2017[500mb][20/21][MULT]
Preguntas Frecuentes Buscar Lista De Miembros Grupos Edita Tu Perfil Mensajes Privados Conectarse Registrarse
Indice Del Foro Normas y Reglas Del Foro Chat Enlaces Radio Online Referidos Rangos Del Foro Juegos Gratis

   Búsqueda Avanzada
Publicar Nuevo Tema   Responder al Tema -> Series De Televisión Animadas  Series De Televisión Animadas

Ver tema anterior Foro De Series De Tv Tema RSS Para recibir las ultimas noticias en tu email Ver siguiente tema
Autor Mensaje
frunfrun
7 Estrellas




Registrado: 18 Nov 2017
Mensajes: 527

spain.png



Desconectado
MensajePublicado: Mar Nov 21, 2017 2:30 am  Enredados serie 1T [m1080p WEB-DL][Castellano]2017[500mb][20/21][MULT] Responder citando Back to top



INFO DE LA SERIE:

T�tulo original
Tangled (TV Series)
A�o
2017
Duraci�n
22 min.
Pa�s
Estados Unidos Estados Unidos
Director
Tom Caulfield, Joe Oh, Stephen Sandoval, Chris Sonnenburg
Guion
Shane Prigmore, Ricky Roxburgh, Dave Schiff, Chris Sonnenburg, Katie Mattila, Jase Ricci, Noelle Stevenson, Suzanne Weber
M�sica
Kevin Kliesch
Fotograf�a
Animation
Reparto
Animation
Productora
Disney Television Animation / Paragon Studios / 9 Story Media Group
G�nero
Serie de TV. Animaci�n. Comedia. Fant�stico | Cine familiar
Grupos
Enredados (Disney)

SINOPSIS:

Rapunzel se da cuenta r�pido, en compa��a de Eugene y Cassandra, de que necesita descubrir m�s cosas antes de asumir su papel como princesa de Corona.

CAPTURAS:

Spoiler:





MEDIA INFO:

Spoiler:

General
Unique ID : 200982877608424619162080406945411421771 (0x9733E4EC39C6DDC79D06F764FCE0D64B)
Complete name : C:\DESCARGAS\SUBIR\Nueva carpeta\Enredados La serie 1x01 m1080p.mkv
Format : Matroska
Format version : Version 2
File size : 476 MiB
Duration : 21mn 42s
Overall bit rate : 3 067 Kbps
Encoded date : UTC 2017-06-03 23:06:00
Writing application : DVDFab 9.2.1.5
Writing library : libebml v0.7.8 + libmatroska v0.8.1

Video
ID : 1
Format : AVC
Format/Info : Advanced Video Codec
Format profile : High@L4.1
Format settings, CABAC : Yes
Format settings, ReFrames : 2 frames
Codec ID : V_MPEG4/ISO/AVC
Duration : 21mn 42s
Bit rate : 2 903 Kbps
Width : 1 920 pixels
Height : 1 080 pixels
Display aspect ratio : 16:9
Frame rate mode : Constant
Frame rate : 25.000 fps
Color space : YUV
Chroma subsampling : 4:2:0
Bit depth : 8 bits
Scan type : Progressive
Bits/(Pixel*Frame) : 0.056
Stream size : 437 MiB (92%)
Writing library : x264 core 142
Encoding settings : cabac=1 / ref=1 / deblock=1:-1:-1 / analyse=0x3:0 / me=hex / subme=5 / psy=0 / mixed_ref=0 / me_range=16 / chroma_me=1 / trellis=0 / 8x8dct=1 / cqm=0 / deadzone=21,11 / fast_pskip=1 / chroma_qp_offset=0 / threads=24 / lookahead_threads=6 / sliced_threads=0 / nr=0 / decimate=1 / interlaced=0 / bluray_compat=0 / constrained_intra=0 / bframes=2 / b_pyramid=0 / b_adapt=1 / b_bias=0 / direct=1 / weightb=1 / open_gop=0 / weightp=0 / keyint=24 / keyint_min=13 / scenecut=40 / intra_refresh=0 / rc=abr / mbtree=0 / bitrate=2903 / ratetol=1.0 / qcomp=0.60 / qpmin=0 / qpmax=69 / qpstep=4 / ip_ratio=1.40 / pb_ratio=1.30 / aq=1:1.00
Default : Yes
Forced : No
Color range : Limited
Color primaries : BT.709
Transfer characteristics : BT.709
Matrix coefficients : BT.709

Audio
ID : 2
Format : AC-3
Format/Info : Audio Coding 3
Mode extension : CM (complete main)
Format settings, Endianness : Big
Codec ID : A_AC3
Duration : 21mn 42s
Bit rate mode : Constant
Bit rate : 192 Kbps
Channel(s) : 2 channels
Channel positions : Front: L R
Sampling rate : 48.0 KHz
Compression mode : Lossy
Stream size : 29.8 MiB (6%)
Language : English
Default : No
Forced : No





Ripeo y sincro : frunfrun
Calidad: WEB-DL m1080p
Codecs: AVC x264 | 1800kbps | High@L5.1 | 4 marcos / AC3 | 192kbps | 2canales
Contenedor: MKV
Idioma: Espa�ol
Imagen: 1920 x 1080
Tama�o: 500 MB
Hostings Disponibles: Uploaded



1x01 Por los pelos
1x02 El enemigo de Rapunzel

Código:
http://ouo.io/vKVcpL


1x03 El Inspector Fitzherbert

Código:
http://ouo.io/enVeoe


1x04 El desaf�o de los valientes

Código:
http://ouo.io/cg8H6


1x05 Cassandra contra Eugene
1x06 El regreso de Strongbow

Código:
http://ouo.io/c7buwU


1x07 El m�todo de Fly

Código:
http://ouo.io/WBCPsV


1x08 La gran exposici�n
1x09 Under Raps
1x10 Una princesa enfadada

Código:
http://ouo.io/u7ROn


1x11 La historia de Pascal
1x12 Los hermanos mayores de Corona

Código:
http://ouo.io/WQgbp3


1x13 La cólera de la Maléfica Melody
1x14 El enemigo de Max

Código:
https://ouo.io/CCz0Tf


1x15 La visita de Willow
1x16 Reina por un día
1x17 El bloqueo del pintor
1x18 No estoy de humor
1x19 La búsqueda de Varian
1x20 El regreso del alquimista

Código:
https://ouo.io/IbMLgv





Ultima edición por frunfrun el Lun Abr 16, 2018 6:19 am; editado 2 veces
Ver perfil del usuario Enviar mensaje privado
frunfrun
7 Estrellas




Registrado: 18 Nov 2017
Mensajes: 527

spain.png



Desconectado
MensajePublicado: Jue Nov 23, 2017 7:00 am  Re: Enredados serie 1T [m1080p WEB-DL][Castellano]2017[500mb][20/21][MULT] Responder citando Back to top

Añadidos

1x11 La historia de Pascal
1x12 Los hermanos mayores de Corona
Ver perfil del usuario Enviar mensaje privado
frunfrun
7 Estrellas




Registrado: 18 Nov 2017
Mensajes: 527

spain.png



Desconectado
MensajePublicado: Vie Abr 06, 2018 10:41 pm  Re: Enredados serie 1T [m1080p WEB-DL][Castellano]2017[500mb][20/21][MULT] Responder citando Back to top

Añadidos

1x13 La cólera de la Maléfica Melody
1x14 El enemigo de Max
Ver perfil del usuario Enviar mensaje privado
frunfrun
7 Estrellas




Registrado: 18 Nov 2017
Mensajes: 527

spain.png



Desconectado
MensajePublicado: Lun Abr 16, 2018 6:21 am  Re: Enredados serie 1T [m1080p WEB-DL][Castellano]2017[500mb][20/21][MULT] Responder citando Back to top

Añadidos

1x15 La visita de Willow
1x16 Reina por un día
1x17 El bloqueo del pintor
1x18 No estoy de humor
1x19 La búsqueda de Varian
1x20 El regreso del alquimista
Ver perfil del usuario Enviar mensaje privado
Mostrar mensajes anteriores:   

Publicar Nuevo Tema   Responder al Tema 

Ver siguiente tema
Ver tema anterior
No puede crear mensajes
No puede responder temas
No puede editar sus mensajes
No puede borrar sus mensajes
No puede votar en encuestas

Foro De Series De Tv Tema RSS Google Sitemap Google XML RSS A PDF    

Seguridad del Foro

67603 Ataques Bloqueados

Powered by phpBB © 2001, 2004 phpBB Group. © Foro De Series